Ffmpeg Rtsp To Mp4

exe 2018-09-21 오전 03:18 61,044,736 ffplay. mp4, which has the highest resolution among all the input video streams. Please note that framerate from cameras must be greater than or equal to 15fps for mpeg1 encoding, otherwise ffmpeg errors will prevent video encoding to occur. FFmpeg developer can use all of FFmpeg features from code in comfortable way. RTSPストリームをカメラから. ffmpeg -i "rtsp://user:[email protected]" -s 640x480 /tmp/output. Let’s finish this round-up with an advanced. On iOS the created video plays without problems on new devices. FFmpeg supports lots of codecs: the main ones are included on the codecs page. If you have a camera with advanced configuration options, make sure it streams video at a recommended 25fps. Works like a charm every time. mp4 -i subtitles. there is some Patch to configure ffmpeg supporting rtsp? 3. Video information like frame width and frame height is present there. Posted by 2 years ago. it doesn't. Background. rtspで配信される映像をmp4形式で記録するコマンドです。. mp4 4) Converting. In this example, we save a new file at 10 second intervals, but the value for segment_time can be any positive integer. As you see, you need to install the ffmpeg libraries: sudo apt-get install ffmpeg libavresample-dev libavutil-dev libavcodec-dev libavformat-dev libswscale-dev Now, retry: cmake -D CMAKE_BUILD_TYPE=RELEASE -D CMAKE_INSTALL_PREFIX=/usr/local -D WITH_TBB=ON -D WITH_V4L=ON -D WITH_OPENGL=ON -D WITH_FFMPEG=ON -D WITH_V4L=ON -D WITH_LIBV4L=ON. It ends up being around 6. To re-stream using FFmpeg, use the -re option when encoding the video file for Wowza Streaming Engine™ media server software. 3/librtmp ffmpeg-0. Example: MPEG4 can be muxed in any way, however if you want to stream Window Media Video, then you cannot use PS, MP4 or RAW muxing. Step 2 JPG –> FFMPEG –> MP4 movie Then we will combine the separate MP4 movies into a single one Step 3 Multiple MP4 –> FFMPEG –> Joined MP4 final movie Prerequisits: The only thing you need is FFMPEG. FFmpeg 是一个处理视频和音频内容的开源工具库,可以实现编码、解码、转码、流媒体和后处理等服务。 转换格式 转换为 MP4 格式: ffmpeg -i input. I converted Star Wars: The Force Awakens Official Teaser H264 to H265 as an example. Here’s how I solved each part: 1. It provides ffserver tool that can be used to setup a streaming server. _____ CONVERSION OF VIDEO FROM ONE FORMAT TO ANOTHER ffmpeg -i wildlife. it doesn't. Having written the previous article on how to do this with FFMPEG I have become painfully aware of the limitations FFMPEG posses in the RTSP department. VCT - Video Converter & Transcoder Open source video/audio converter GUI based on FFmpeg. 4 HTTP streaming. srt -map 0 -map 1 -c copy -c:v libx264 -crf 23 -preset veryfast video-output. - kaymyst/ffmpeg-streamer. Is this possible using ffmpeg? I can read the stream into an mp4 file but the output should be ongoing stream. mp4 常用的FLV封装命令 MP4封装为FLV ffmpeg -vcodec copy -acodec copy -i *. 0; if you have an older version, please update. mp4': Stream #0:0: Audio: aac, 16000 Hz, mono, fltp, 128 kb/s. Every data event contains one image Buffer object. I have a IP Camera that supports RTSP, and I need to display this stream to multiple clients using HTML5. I have got a rtsp stream from camera. 264 video and AAC audio: Or if you have a video file that is encoded in other audio/video format: URL : rtmp://localhost/live. So before going to detail description have a brief introduction of FFmpeg. FFmpeg is a command line-only program that allows you to convert videos and audio into different formats, as well as record. 이 프로토콜은 종단점(end point)들 간에 미디어 세션을 확립하고 제어하기 위해. flv # 変換後のフォーマットによっては、そのフォーマットの仕様の制限やFFmpegが未対応であることなどにより変換前のコーデックが入れられないことがある。. video -vn -acodec libvorbis -ab 128k -dash 1 my_audio. Type ffmpeg -i video. Notes: The sample. You can still access the. J'ai eu besoin de récupérer un flux RTSP, protocole souvent utilisé pour streamer des vidéos sur Internet. And FFmpeg, as a free software project that produces libraries and programs for handling multimedia data would come to your mind firstly. 265/HEVC MPEG Dynamic Adaptive Streaming over HTTP (MPEG-DASH) P2P Streaming Streaming - Mobile Screen Recording (mp4/ogg) and HTML5 Video Smooth Streaming on iis 8 Smooth Streaming on Nginx/Apache. mkv -codec copy LostInTranslation. Add killall -INT ffmpeg to the top of the recordCam. RTSP to HTTP with VLC (Windows). FFmpeg Http Live Streaming - HLS FFmpeg Command Options FFmpeg Smooth Streaming HTTP vs RTMP Mobile - Streaming MPEG-4 Successor H. ffmpegを実行してストリーミング配信を保存 例として以下のコマンドを実行すると、対象フォルダに60秒刻みでmp4ファイルが保存される。 ffmpeg -i "rtsp://127. Note: Changing the value after -b:v will change the video bitrate. mp4 // For audio and video: ffmpeg -i input-file. 264 -r 10 -t 30 -y -vcodec copy -an /home/pi/grab. 1:8554/" -f segment -segment_time "60" -segment_format_options movflags=+faststart -reset_timestamps "1" -strftime "1" d:\temp\sample_%Y. USB camera Logitech https://amzn. c SDL and Video. mp4 video to HLS using ffmpeg in an iOS app. Buy electronic component on utsource. FFMPEG is also free and open-source. mp4 -vcodec libx265 -crf 20 output. As part of this process I am attempting to use evo-avconv (with the …. On iOS the created video plays without problems on new devices. Re: Capture RTSP with ffmpeg by Tom Arik on Dec 21, 2010 at 6:55:09 am. avi* The ffmpeg. Maybe this helps. acodec copy says use the same audio stream that's already in there. Getting images from a camera (using an mpjeg stream or an rtsp stream): both work fine. js FFMpeg wrapper for streaming RTSP into MotionJPEG. I have a set of 4 camera RTSP feeds that run 24x7 and write. It currently includes 6 different types of output streaming which are mjpeg, jpeg via socket. Note: FFmpeg can also be used to transcode a RTSP, native RTP or MPEG-TS stream. Use the FFmpeg HLS options guide to define a more granular configuration. vlc can connect and shows the stream really nice. Converting FLV files to MP4 via Post Processing (Orientation Post Processor) Red5 Pro records files as FLV, but many people have asked about how to convert those files easily to MP4 so that more media players can be used to view them. 0001 -t 30 -y share. mp4 -t 1 -s 480x300 -f image2 imagefile. The information in this post can be used for other streaming services that require an RTMP stream like Facebook!. FFmpeg README. ffmpeg -i rtsp://hostname/test -vcoder copy out. It reads the RTSP feed as input, remuxes the h264 video into an MP4 container, and streams it to HTTP clients. mp4 mov_text (. ffmpeg -i input. rtsp-ffmpeg. FFmpeg is a free software project that produces libraries and programs for handling multimedia data. ts格式的视频片段然后生成一个. FFmpeg Basics by Frantisek Korbel, describes various FFmpeg features and common tasks. [mp4 @ 0x1c4c4c0] Non-monotonous DTS in output stream 0:1; previous: 274141424, current: 253439430; changing to 274141425. FFmpeg is an open-source audio/video processing software which is capable of grabbing, publishing, downloading and transcoding media streams in real-time and via post-processing. Dismiss Join GitHub today. Reading/writing video files using FFmpeg. I can do this by first writing an mp4 to disk and transcode this mp4 to mpegts, but it is impossible to transcode from mp4-rtsp directory to an mpegts file. All things are ready, now we need to run the ffmpeg to convert the RTSP stream to RTMP, then automatically upload it to Youtube Live server by command as below: ffmpeg -f lavfi -i anullsrc -rtsp_transport udp -i rtsp://192. Hello, I have an ubuntu box that I am trying to migrate over to freebsd. I tried different ffmpeg settings (adding "blocksize", "flush_packets", "reorder_queue_size" and few others I can't recall now), unfortunately it didn't change anything. 264/AAC, so I thought it would be trivial to use ffmpeg to convert the file from a TS container to MP4 container, so that I can play the file in QuickTime. ffmpeg -i {rtsp src url} -c:v libx264 -preset medium -crf 22 -c:a copy /home/ubu/output. mp4 file on our desktop over to MKV in our user’s “Movies” directory, it might look something like:. So the command-line called should be something like: ffmpeg. FFMPEG commands for uploading 360 videos with spatial audio to YouTube 05 May 2016. mov container when the audio and video start at different timecodes. problem with videowriter H264 ecode. While -c:v libx265 tells ffmpeg to encode the new video file in H. Older iOS devices with a maximum resolution of 480×320 pixels seem to select the best quality stream available, even if they cannot play it. FFmpeg developer can use all of FFmpeg features from code in comfortable way. Convert various. srt -c:v copy -c:a copy -preset veryfast -c:s mov_text -map 0 -map 1 output. 0, so you don't need to fetch it separately. I detected that ffmpeg is continuously writing the mp4 file (file size grows all the time). This is a playground to test code. js, and mse via socket. From Tmplab. 150 -i clip. You can do this by changing the final RTMP address in the exec ffmpeg line. FFmpeg only provides source code. avi jellyfish. $ ffmpeg -i jellyfish. The tarball already includes a copy of FFmpeg 3. mkv Summary. "FFMPEG - Example - RTSP-LabVIEW-FFMPEG - stream to file" - Sometimes when FFMPEG fails to establish connection with network device you can relay data with LabVIEW over the pipes (stdin/pipe0 and stdout/pipe1 and stderr/pipe2). We can extract audio stream from the video file and save audio as a separate file in formats like aac , mp3 , vorbis etc. In the updated version we will be running using FFMPEG directly inside of a Docker container. 7 MMS / MMSH streaming to Windows Media Player. As you see, you need to install the ffmpeg libraries: sudo apt-get install ffmpeg libavresample-dev libavutil-dev libavcodec-dev libavformat-dev libswscale-dev Now, retry: cmake -D CMAKE_BUILD_TYPE=RELEASE -D CMAKE_INSTALL_PREFIX=/usr/local -D WITH_TBB=ON -D WITH_V4L=ON -D WITH_OPENGL=ON -D WITH_FFMPEG=ON -D WITH_V4L=ON -D WITH_LIBV4L=ON. ffmpeg takes care of all the hard work of video processing by doing all the decoding, encoding, muxing and demuxing for you. mp4 starting at the fifth second of the video creating the image file image-XXX. 0 MonoFor historical reasons, when using (1. Link to source code at Github. I've gotten the hang of extracting 5. Is there any way to record video in. 一、FFmpeg推RTMP流准备工作 首先确保自已已经安装了nginx + rtmp服务器。打开配置文件nginx. But I would also like ffmpeg to be installed automatically on my Raspberry, so a pull request for ffmpeg-installer is required (to support ARM processors). m3u8 \ -segment_list_flags +live -segment_time 10 \ out%03d. ffmpeg rtsp stream to mp4. mp4 -vcodec copy -acodec copy -map 0:1 -map 1:0 output. Ask Question Asked 7 years, 11 months ago. I'm trying to record RTSP stream from Axis camera with FFmpeg libavformat. ts -vcodec copy -f mp4 stream. Remember to post a comment to provide information about how to use FFmpeg or if you have. I am eventually hoping to use this method to transcode a multicast SDP live stream on an internal network, but for testing I am trying to use the example MOV file in this first instance. 92 you can now live-stream a camera feed directly in lovelace. I've been in the streaming media industry since 2008 and have seen a lot of misinformation regarding both FFmpeg and libx264. ffmpeg -i input. $ ffmpeg -i input. /ffmpeg -t 10 -f vfwcap -i 0 -r 8 -f mp4 cap. There are a lot of variations when setting this up so this is not comprehensive to cover every camera type but hopefully it gets you most of the way there. Simulate RTSP over HTTP. 66:554/h264major -vcodec copy -f mp4 record. NET Video Converter. USB camera Logitech https://amzn. js --- ffmpeg rtsp 推流,websocket通信,cnavas 渲染. 264 + MP3 (MP4). Save continuous RTSP stream to 5-10 minute long mp4 files. flv format if record option is enabled, but I need. RTSP is not technically a protocol handler in libavformat, it is a demuxer and muxer. For video, it will select stream 0 from B. Then i used ffmpeg avformat_open_input on the rtsp url. It runs FFMpeg process only when someone is subscribed to its data event. A friend has a camera that publishes an RTSP feed containing h264 video. mp4 in the command line to switch H264 video codec to H265 via FFmpeg fast and losslessly. avi jellyfish. We can extract audio stream from the video file and save audio as a separate file in formats like aac , mp3 , vorbis etc. flv ffmpeg -i inputfile. You can still access the. I'm trying to stream h264 video from a RTSP stream and directly store it into a file and skip decoding/encoding for most frames as I need high performance and hundreds of frames per second. ffmpeg -i clip. 64:554/video/1 output. "FFMPEG - Example - RTSP-LabVIEW-FFMPEG - stream to file" - Sometimes when FFMPEG fails to establish connection with network device you can relay data with LabVIEW over the pipes (stdin/pipe0 and stdout/pipe1 and stderr/pipe2). Ffmpeg rtsp player Ffmpeg rtsp player. Moreover it supp. 0 release: 2019-12-18 17:00: A new version of the GStreamer Rust bindings, 0. js, and mse via socket. This trick will help you to scale your video files to smaller display devices such as tablets and mobiles. It supports almost all audio/video codecs (h264, h265, vp8, vp9, aac, opus, etc. How can I keep the flow (protocol rtsp, codec h264) in file (container mp4)? That is, on input an endless stream (with CCTV camera), and the output files in mp4 format size of 5-10 minutes of recording time. flv -acodec copy video. To draw to the screen, we're going to use SDL. The ffmpeg integration allows other Home Assistant integrations to process video and audio streams. node-ffmpeg. MTS -f avi -vcodec mpeg4 -b:v 16000 bla. Being new to this forum (and to a degree, ffmpeg), please excuse any forum etiquette I fail to abide! I am having a problem with the video / audio sync when recording from an RTSP stream with ffmpeg. mp4 -t 1 -s 480x300 -f image2 imagefile. From ffmpeg v2. Re: Capture RTSP with ffmpeg by Michael Rampe on Dec 21, 2010 at 1:13:26 am. FFmpeg - A complete, cross-platform solution to record, convert and stream audio and video. Open terminal. This example re-streams the sample. 43:1256 -r 15 C:/output/video. ZZZZ sexagesimal format)-s 480x300: frame size of image to output (image resized to fit dimensions)-f image2: forces format. ffmpeg -i "rtsp://user:[email protected]" -s 640x480 /tmp/output. I could not able to get the frames from the ip camera. I detected that ffmpeg is continuously writing the mp4 file (file size grows all the time). Instantly share code, notes, and snippets. 我这里rtsp流的地址大概是 rtsp:\\192. On iOS the created video plays without problems on new devices. Digging in the problem just a bit, I've tried to play the stream by ffmpeg like this ffmpeg -i rtsp://192. 0 MaxClients 10 MaxBandw. However, the latest version of ffmpeg at the moment of writing this article is 4. Simple tutorial to teach you how to connect your IP camera RTSP stream to Youtube Live by using the free ffmpeg software, it's a free video stream solution. [Tutorial]. 2 was released on 2019-12-31. 265 MKV Video to AVC/H. And FFmpeg, as a free software project that produces libraries and programs for handling multimedia data would come to your mind firstly. The ffmpeg integration allows other Home Assistant integrations to process video and audio streams. FFMPEG-generated DASH Manifest for Livestream is invalid, but is still playable on some players. RTSP-RTMP DirectShow Source SDK (evaluation) The Datastead RTSP/RTMP DirectShow Source filter SDK is designed to let you build DirectShow graphs that can receive live RTSP and RTMP streams. ffmpeg is supporting to read rtsp:// streaming by default no not? 2. Time shifting of live broadcast is also supported. Ok,but my further question is how to directly play the rtsp stream with one pipeline. ffmpeg -i myvideo. When reading stream over RTSP you may see this in the FFmpeg output: [rtsp @ 0000000000026c80] method SETUP failed: 461 Unsupported transport. This is deprecated and will stop working in the future. js instance that calls the rtsp stream via ffpmeg when needed. Motion detection. Example for a 720p @ 2500 kbps CBR MPEG-2 transport stream: ffmpeg -re -i -s 1280x720 -r 24 -c:v libx264 -x264opts nal-hrd=cbr:force-cfr=1 \ -b:v 2300k -minrate 2300k…. FFmpeg module for Node. detected 4 logical cores. 0 RTSPPort 5004 RTSPBindAddress 0. The main purpose of direct recording on the origin Nimble-server is: Remux and Uploading of the video files are not needed anymore. Though the occasional frame will likely need to be analyzed (may be able to get around this in hardware. mp4 -c copy -map 0 /path/to/outputfile. avconv -i inputfile. But camera sends strange data, FPS is 100 and camera sends every 4th frame so result FPS is about 25. It can convert media files, cut or combine video, get video thumbnail, capture screen, create video from images, decode video frames as bitmaps etc. It is thread-safe, multiple instances can be used concurrently in the same application. Utility for managing video streams using ffmpeg. 265 (better in that it compresses more for the same quality, or gives higher quality for the same size). This slows the stream down to simulate live streaming and mitigates buffering and memory buildup that can disrupt playback. Tutorial 02: Outputting to the Screen Code: tutorial02. mp4': Stream #0:0: Audio: aac, 16000 Hz, mono, fltp, 128 kb/s. How to restream rtsp to hls/mjpeg/other stream. If you like this project you can support me. It ends up being around 6. I think it would be better if ffmpeg waited for ~1MiB before flushing it to disk. com (dj stava) Date: Tue, 25 May 2010 09:39:35 +0800:. The -re option instructs the encoder to read the source at its native frame rate. The -i parameter specifies the input video file, in this case "video. conf ##### HTTPPort 8080 RTSPPort 8554 HTTPBindAddress 0. The drawback is, that you only get one quality setting. UMS is powered by MEncoder, FFmpeg, tsMuxeR, AviSynth, MediaInfo and more, which combine to offer support for a wide range of media. FFmpeg is a free software project that produces libraries and programs for handling multimedia data. mp4 结果如下所示: 9. actually we have self developed plugins: /! myh264dec ! queue ! myvideiorawplaysink/ which do h264 decode, and video/x-raw playback. This is only run on the initial client connection, so that partial content requests don't try to spawn FFMPEG again. mp4 -itsoffset 0. Download Source Code ffmpeg-4. Click to expand the next section to see the details of ffmpeg installation via PPA. In Windows 7, the information is found out from the Properties > Details (tab) of a video. The solution I have been working on is somewhat similar. With the help of ffmpeg we can convert wmv to mp4, mp4 to wmv, mvi to mp4, mpg to mp4, mp4 to mpg, etc. mp4 This command fades in and out the first and last 30 video frames and 44100 audio samples, on a 1800 frames-long and 2646000 samples-long video (which, if your framerate is 30 fps and samplerate. It supports almost all audio/video codecs (h264, h265, vp8, vp9, aac, opus, etc. js --- ffmpeg rtsp 推流,websocket通信,cnavas 渲染. mp4 If you're unsure about what CRF to use, begin with 23 and change it according to your subjective impression of the output. Instead, the following FFmpeg commands create separate audio and video renditions of the file in. From ffmpeg v2. FFmpeg is a free and open-source project consisting of a vast software suite of libraries and programs for handling video, audio, and other multimedia files and streams. exe 2018-09-21 오전 03:18 61,067,776 ffprobe. And as ffmpeg is single threaded, it seems to take long enough for the rtsp input buffer to overflow. If an FFMPEG option is available we recommend you try that first as it will often be faster and include audio support. ffmpeg -i input. mp4 -c:v libx265 -preset medium -x265-params crf=28 -c:a aac -strict experimental -b:a 128k output. mp4 Diposting oleh. # O/S info $ uname -r 3. 0 MaxHTTPConnections 2000 MaxClients 1000. srt -map 0 -map 1 -c copy -c:v libx264 -crf 23 -preset veryfast video-output. This is only run on the initial client connection, so that partial content requests don't try to spawn FFMPEG again. Ffmpeg dash mpd Ffmpeg dash mpd. 指定规格参数: ffmpeg -i input. The program streams or transcodes many different media formats with little or no configuration. $ ffmpeg -i input. This is the easiest way to install FFmpeg on Ubuntu. FFmpeg is a command line-only program that allows you to convert videos and audio into different formats, as well as record. NET Video Converter. It’s also useful to convert multimedia files between various formats. ffmpeg is our Swiss army knife of transcoding, and Bento4 is a collection of great tools for working with mp4. To do this, a H265 to H264 converter is in demand. Many formats only support a handful of metadata keys. In this article, we’d like to talk about why Adaptive Bitrate Streaming technology is a must-have for any VOD or Live online publisher, and how to encode Multi-bitrate videos mp4 files with ffmpeg to be compatible with MPEG-DASH streaming. If you are running Home Assistant Core in a Python environment, you’ll need have the ffmpeg binary in your system path. What is FFmpeg? FFmpeg is a great open source library/tool that can decode and encode any video format to one another. 3:554/onvif1 -tune zerolatency -vcodec libx264 -t 12:00:00 -pix_fmt + -c:v copy -c:a aac -strict experimental -f flv. io, progressive mp4, native hls, hls. Hello, I have an ubuntu box that I am trying to migrate over to freebsd. mp4 to get the stream configured as the MPEG4 "Computer View" in your camera, so you must match width & height to whatever you configure there, and set 24. This will extract 1 frame from myvideo. 264 video with AAC audio, but I can't seem to find the ffmpeg commands to do this. FFMPEG is also free and open-source. 71:554/ch01. That results in one 60s mp4 per minute (test1. 'rtmpdump' does not work neither. ffmpeg can pull down rtsp over http with a similar command to normal rtsp streams, it's just that you need to the rtsp_transport flag. Hi, i'm trying to use ffmpeg to capture a h264 video stream from a bosch ip camera, with no luck. FFmpeg Beginner's handbook Chinese Version by Steven Liu, describes FFmpeg common use method in Chinese, from command line to API usage. mp4 に記録しています ファイルをffmpegを使用して、すべての動画で10分の長さのマルチファイルにロールバックしたい。 現在、私はこれに対する解決策を持っています:時間の長さを「00:10:00」に設定し、終了後、新しいプロセス. Troubleshooting. mp4 -itsoffset 0. FFmpeg is not a Wowza Media Systems product. It remuxes an RTSP input to an MP4 file. asked Jan 27 at 15. This is not what I want since all images are being queued in memory, which might blow up my system. there is some Patch to configure ffmpeg supporting rtsp? 3. Cannot open ". mp4 -f mp3 -ab 192000 -vn music. 100 Stream #0:0, 0, 1/90000: Video: hevc (Main), 1 reference frame (hev1 / 0x31766568), yuvj420p(pc, bt709), 704x576 (0x0), 0/1, q=2-31, 30 tbr, 90k tbn, 90k tbc Stream #0:1, 0, 1/44100: Audio. $ cd ffmpeg-0. avconv -i inputfile. js file is around 24. I can grab video from files and then save it to another file, this is OK. flv -acodec copy video. We can extract audio stream from the video file and save audio as a separate file in formats like aac , mp3 , vorbis etc. mkv file to H. 264 MP4 with FFmpeg. r/ffmpeg: FFmpeg is the leading multimedia framework, able to decode, encode, transcode, mux, demux, stream, filter and play pretty much anything … Press J to jump to the feed. raw -audiofile dump. Features include AVI/WMV/MKV/WebM/MP4 recording, frame capture, streaming, IP cams, motion detection, videos from bitmaps, reencoding, PIP, overlays, screen capture, editing, conversion. The -re option instructs the encoder to read the source at its native frame rate. It is now possible to modify the logging type which determines. This library provides a set of functions and utilities to abstract commands-line usage of ffmpeg. 7 in Windows 7 machine. mp4, which has the highest resolution among all the input video streams. Il protocollo serve a stabilire e gestire sessioni di streaming tra server e client. Useful for testing from servers. I think it would be better if ffmpeg waited for ~1MiB before flushing it to disk. IP Camera Live Streaming RTSP to RTMP On my previous article, we shared the tutorial on how to use the free ffmpeg software to relay the video stream of your IP cameras to the RTMP server. $ ffmpeg -i video. ts -acodec copy -vcodec copy car-free\ tourism. jpg This might work or might just create one frame and stop. Simple tutorial to teach you how to connect your IP camera RTSP stream to Youtube Live by using the free ffmpeg software, it's a free video stream solution. It can convert media files, cut or combine video, get video thumbnail, capture screen, create video from images, decode video frames as bitmaps etc. ffserver is an HTTP (RTSP is being developed) multimedia streaming server for live broadcasts. For a while it seemed that I found the solution: using ffmpeg to convert the source videos to highly optimized h264 mp4 files. RTSP - Real Time Streaming Protocol - è un protocollo di rete utilizzato in sistemi informatici di comunicazione e di intrattenimento rivolto al controllo di server per lo streaming multimediale. mpg Add Text Subtitles to a Video. exe 2018-09-21 오전 03:18 61,067,776 ffprobe. This wikiHow teaches you how to install FFmpeg onto your Windows 10 computer. To draw to the screen, we're going to use SDL. More downloading options. TVideoGrabber. The various options:-vframes 1: limit to 1 frame extracted-ss 0. ffmpeg ndk 빌드 #2 ffmpeg 옵션별 빌드 best-video-player Fix rtmp double cflags in pkgconfig module. 264 (rtsp 0 Vote Up Vote Down maves asked 4 years ago I am trying to isolate a problem with decode of rtsp streamed mp4 data through EMS. If you have a camera with advanced configuration options, make sure it streams video at a recommended 25fps. The ffmpeg integration allows other Home Assistant integrations to process video and audio streams. SDL stands for Simple Direct Layer, and is an excellent library for multimedia, is cross-platform, and is used in several projects. 250000 compared to the slightly off value in the previous comment. 264 - decrease size, maintain qu. ) and file formats (mp4, flv, mkv, ts, webm, mp3 etc. Time shifting of live broadcast is also supported. Ivan Avdeev 3,871 views. 0 RTSPBindAddress 0. mp4, etc) I'm finding plenty of examples for extracting single frames in a similar way, but not video. mp4 Shawshank_Redemption. 2:554/video -acodec copy -vcodec copy. No need to be familiar with AviSynth to use the predefined Avanti/AviSynth pre-processor options. I am trying to decode rtsp stream from VLC. I was thinking of using Exoplayer to display the video on my phone and MediaMuxer to record it to the sdcard. A few minutes ago, I tried to use the latest version (commit 593bb50e062fae474880f5ab353fec9f751dc06e) I tried ffplay, mplayer and vlc, for play but nothing. Simulate RTSP over UDP. 1:554/live Stitch the camera in real-time You will probably notice the live stream of camera is the dual fish eyes and is not the full resolution of camera but is limited to 720p/60FPS. When the mapping happens, it says “Take the audio of file 0 and the video of file 1, leave the audio of file 0 alone and apply the offset to the video of file 1 and merge them. option --enable-network seems not work? (configuration log: network supporting: no) Thanks for your suggestions. Works fine in original OBS. ffmpeg –i rtsp://192. post314-g78a3d57 | about patchwork patch tracking system | version v2. These would transcode MP4 rtsp-stream to Motion JPEG http-stream:. Just to check, I reset the service and restarted the TV, but no luck. Simulate RTSP over TCP. libavcodec provides implementation of a wider range of codecs. If you like this project you can support me. ffplay -i rtsp://192. The tarball already includes a copy of FFmpeg 3. It has been a few weeks since we’ve recorded Trinity360’s event and we’ve started rendering a 360 video with spatial audio. Where to adjust VLC Player settings. ffmpeg -i LostInTranslation. NET framework provides classes to read and write video files through FFmpeg library (video data supported only). Simple tutorial to teach you how to connect your IP camera RTSP stream to Youtube Live by using the free ffmpeg software, it's a free video stream solution. Unable to use single and regular quotes. Step 3: Similar to convert MKV HEVC to H264 MP4 with FFmpeg, you need enter a command line. Read h264 frame from IP Camera. ffmpeg rtsp encode\ free download. ffmpeg from rtsp source (bosch ip camera) Help answer threads with 0 replies. At its core is the FFmpeg program itself, designed for command-line-based processing of video and audio files, and widely used for format transcoding, basic editing (trimming and concatenation), video scaling, video post. i would like to have those files named automatically 1. Press question mark to learn the rest of the keyboard shortcuts. You can do this by changing the final RTMP address in the exec ffmpeg line. in which case ffmpeg instead of OpenCV would work, but ffmpeg is complicated. 109/live/r1 Once this is streaming (and you can verify using VLC and opening the RTMP url you provided), you can go to your VMS and add a generic RTSP camera. To find out video resolution and frame rate of a video file, you can simply view its properties in modern Windows or any other OS. Tip: To convert all MKV files in the current directory, run a simple loop in terminal:. 188:8089\test,我想用ffmpeg将将这个rtsp流录制成mp4文件怎么实现呢? 那个rtsp流的编码是mpeg4,因此不需要转码,仅仅是想用ffmpeg将rtsp流录制成mp4文件保存在本机上。. この記事では、ffmpegでrtspで配信される映像をFFmpegを使って録画および確認するコマンドを紹介します。 環境. Converting video and audio has never been so easy. NET applications. Ffmpeg dash mpd Ffmpeg dash mpd. If you are running Home Assistant Core in a Python environment, you’ll need have the ffmpeg binary in your system path. My recommended tools, ffmpeg and Bento4, are both free and open-source software. I am trying to rtsp stream between two consoles on my computer. If you find FFmpeg useful, you are welcome to contribute by donating. MP4 Source code highlights 1 Using Springs @Scope(“prototype”) to implement the Producer pattern from CDI at line 57 , Springs prototype scope will inject a new object however the catch is it only a new object at the time it injects hence the need to. I n this blog I am going to explain how to take the live video streaming url as input and transcode it and record it in a local disk using FFmpeg. I am eventually hoping to use this method to transcode a multicast SDP live stream on an internal network, but for testing I am trying to use the example MOV file in this first instance. DirectShow. It’s also useful to convert multimedia files between various formats. Capture RTSP with ffmpeg by Tom Arik on Dec 14, 2010 at 2:03:42 pm. mp4 -i subtitles. Because FFVCL is a direct wrapper of FFmpeg’s libavcodec APIs, it. // rtsp推流 /opt/srs/srs2. It supports almost all audio/video codecs(h264, h265, vp8, vp9, aac, opus, etc. Re: gst-launch received rtsp raw h264 file are not smooth when playing. If you find FFmpeg useful, you are welcome to contribute by donating. The static pull mode is executed at service startup and reconnect after failure. I had a simple dream. IP Camera Live Streaming RTSP to RTMP On my previous article, we shared the tutorial on how to use the free ffmpeg software to relay the video stream of your IP cameras to the RTMP server. 100 Stream #0:0, 0, 1/90000: Video: hevc (Main), 1 reference frame (hev1 / 0x31766568), yuvj420p(pc, bt709), 704x576 (0x0), 0/1, q=2-31, 30 tbr, 90k tbn, 90k tbc Stream #0:1, 0, 1/44100: Audio. mp4 -vf scale=500:-1 -t 10 -r 10 image. ffmpeg 폴더로 이동 시키기. Reference NReco. Flv Grabber is the easiest, most powerful way to grab and capture millions of video and audio files from the internet. /ffmpeg -t 10 -f vfwcap -i 0 -r 8 -f mp4 cap. Background. For Windows users there is an alternative available to convert MP4 to HLS without using FFmpeg. RTMP stream Input to FLV file, reencode. It supports almost all audio/video codecs(h264, h265, vp8, vp9, aac, opus, etc. The command I use: ffmpeg -f lavfi -i anullsrc -rtsp_transport tcp -thread_queue_size 512 -i. Hi, I like to transcode an MP4 file I get via rtsp directly to an Mpeg-TS with video and audio streams copied. $ mv rtmpdump-2. вот что мне он выдает [rtsp @ 0x562df6cc5e80] UDP timeout, retrying with TCP [rtsp @ 0x562df6cc5e80] method PAUSE failed: 551 Option not supported [rtsp @ 0x562df6cc5e80] Could not find codec parameters for stream 0 (Video: h264, none): unspecified size Consider increasing the value for the 'analyzeduration' and 'probesize' options Guessed Channel Layout for Input Stream #0. FFmpeg - A complete, cross-platform solution to record, convert and stream audio and video. Read h264 frame from IP Camera. ffmpeg Settings for HTML5 codecs (h264/mp4, theora/ogg, vp8/webm) By Byline John Dyer on January 5, 2011 March 5, 2020 This is just a quick tip for people encoding video for HTML5 (and using sweet HTML5 players like MediaElement. FFmpeg Basics by Frantisek Korbel, describes various FFmpeg features and common tasks. Buy electronic component on utsource. Audio is dropping frequently - once per second or so. Having written the previous article on how to do this with FFMPEG I have become painfully aware of the limitations FFMPEG posses in the RTSP department. ffmpeg -i rtsp://52. This is deprecated and will stop working in the future. I have got a rtsp stream from camera. Converting FLV files to MP4 via Post Processing (Orientation Post Processor) Red5 Pro records files as FLV, but many people have asked about how to convert those files easily to MP4 so that more media players can be used to view them. run the ffmpeg command from php without it waiting for a response (for me, this was the hardest part) tell ffmpeg to send it’s output to a file; from the front end (AJAX, Flash, whatever) hit either that file directly or a php file that can pull out the progress from ffmpeg’s output. · Watch a stream over UDP, with a max reordering delay of 0. mp4 and it works. I used the following command: ffmpeg -i vlc-output. So if you want to stream video on the network, at now the only option available is GStreamer, which needs OpenCV to be built with GStreamer, be default OpenCV does not have GStreamer. MTS -f avi -vcodec mpeg4 -b:v 16000 bla. Let's finish this round-up with an advanced. Note that this filter is not FDA approved, nor are we medical. FFmpeg — це комплекс вільних комп'ютерних програм та програмних бібліотек для маніпуляцій з цифровими відео- та аудіо-матеріалами — запис, конвертація та пакування у різні формати контейнерів. Anyone can download the software without any cost. RTSPストリームをカメラから. I think the problem is, standard mplayer & ffmpeg build both rely on libavformat/codec to open rtsp stream, and the libs don't implement a fully functional RTSP client. Steam recording with RTMPDump or FFmpeg. 264 video encoding, FFmpeg uses external open source library x264. Then i used ffmpeg avformat_open_input on the rtsp url. Hashes for ffmpeg-python-. The VPP RTSP Sink Filter creates a session named "live". How to fix H264 decoding? Build OpenCV with my own ffmpeg build. It runs FFMpeg process only when someone is subscribed to its data event. tgz 파일 다운로드. Update: Still using this 8 years later, but in the form of a quick script, which is useful if you are doing it more than once. ffmpeg -i INPUT. In order to be able to use this module, make sure you have ffmpeg installed on your system (including all necessary encoding libraries like libmp3lame or libx264). conf ##### HTTPPort 8080 RTSPPort 8554 HTTPBindAddress 0. The command I use: ffmpeg -f lavfi -i anullsrc -rtsp_transport tcp -thread_queue_size 512 -i. mp4 トランスコードを実行せず、mp4形式でファイルをダンプしません。 もちろん、これは、ストリーミングされたコンテンツがmp4と互換性があることを前提としています(可能性があります)。. srt -c copy -c:s mov_text output. Ffmpeg Convert Rtmp To Rtsp software free downloads. mp4 Image Overlay on a Video. mp4 结果如下所示: 9. ffserver is an HTTP (RTSP is being developed) multimedia streaming server for live broadcasts. I used the VLC streaming feature to stream a file with tracnscoding activated for Profile: Video - H. 264 (rtsp 0 Vote Up Vote Down maves asked 4 years ago I am trying to isolate a problem with decode of rtsp streamed mp4 data through EMS. I can only share you my experience on this and I have used one of the latest versions of Motion (also uses ffmpeg like VLC and many others). I want to use opensource components. mp4-vcodeclibx264-acodeccopy-presetultrafast-frtsp-rtsp_transport tcprtsp://yourip/pusher. 265 encoded video. Compressing video files. DirectShow. It remuxes an RTSP input to an MP4 file. It runs a full Node. ffmpeg ndk 빌드 #2 ffmpeg 옵션별 빌드 best-video-player Fix rtmp double cflags in pkgconfig module. Vary the CRF between around 18 and 24 — the lower, the higher the bitrate. I think it would be better if ffmpeg waited for ~1MiB before flushing it to disk. mp4 -t 1 -s 480x300 -f image2 imagefile. $ ffmpeg -i input. cd ~/Videos and hit enter. 66:554/h264major -vcodec copy -acod. ffplay is a simple media player based on SDL and on the. I know that in this particular case I can use mkvmerge, but it wouldn't work for. It remuxes an RTSP input to an MP4 file. After a lot of research and experimentation I created my FFmpeg HLS reference implementation that is available on Bitbucket. 8 and later editions. Open terminal. RTSPストリームをカメラから. From ffmpeg v2. It allows you to open a variety of. Clients of media servers issue VHS-style commands, such as play, record and pause, to facilitate real-time control of the media streaming. 000000, bitrate: 2822 kb/s Stream #0:0: Audio: pcm_f64le, 44100 Hz, mono, dbl, 2822 kb/s [aac @ 0x252c000] Too many bits per frame requested Output #0, mp4, to 'output. While ffmpeg encodes in the background , the problem is that vlc doent even want to show the stream ex: udp://127. mp4 This command fades in and out the first and last 30 video frames and 44100 audio samples, on a 1800 frames-long and 2646000 samples-long video (which, if your framerate is 30 fps and samplerate. 3:554/onvif1 -vcodec copy -acodec copy -f. Re-streaming an RTSP stream through Wowza Pro (RTSP/RTP) 6 Answers Tandberg 8040 - voyager as encoder 5 Answers How to determine Live Stream Bitrate? 1 Answer. [solved]Execute problem (ffmpeg, rtsp) This topic has been deleted. The ffmpeg-all-codecs. mp4 will not do transcoding and dump the file for you in an mp4. mp4 file on our desktop over to MKV in our user’s “Movies” directory, it might look something like:. 2h264: mp4 to annexb in ffmpeg; 3ffmpeg 从mp4上提取H264的nalu; 4PHP+FFMPEG自动转码H264标准Mp4文件; 5ffmpeg学习(二) 通过rtsp获取H264裸流并保存到mp4文件; 6ffmpeg--avi转码到mp4(aac+h264)源码分享. mkv file to H. /ffmpeg -t 10 -f vfwcap -i 0 -r 8 -f mp4 cap. ffplay -i rtsp://192. mp4 to get the stream configured as the MPEG4 "Computer View" in your camera, so you must match width & height to whatever you configure there, and set 24. It has been a few weeks since we’ve recorded Trinity360’s event and we’ve started rendering a 360 video with spatial audio. If you have subtitles for a movie or documentary, it is possible to use FFmpeg to insert them into your video file: ffmpeg -i input. Muxer / audio and video formats matrix. At the time of writing this article, the current version of FFmpeg available in the Ubuntu 18. Extract image frames from a video. egoist Posts: 2 Joined: Tue May 21, 2013 6:08 am. OK, I am not quite clear from your question whether you want to provide an RTSP stream from a server you operate or if you want to capture an RTSP stream from another server. So before going to detail description have a brief introduction of FFmpeg. Add killall -INT ffmpeg to the top of the recordCam. So in this tutorial, we're going to open a file, read from the video stream inside it, and our DO SOMETHING is going to be writing the frame to a PPM file. Instantly share code, notes, and snippets. 264 + MP3 (MP4). there is some Patch to configure ffmpeg supporting rtsp? 3. Our group was laid off when their Helix Streaming Media Server, which I supported, was discontinued. This allows for an ideal headless server setup. Hi, I'm using ffmpeg to transcode the video stream of a network camera but the resulting video is not useable because according to the verbose output. Hi, I'm using ffmpeg to transcode the video stream of a network camera but the resulting video is not useable because according to the verbose output. This trick will help you to scale your video files to smaller display devices such as tablets and mobiles. mp4 -vcodec libx264 -f rtsp rtsp://127. mp4 files every 5 minutes (so 48 files written per hour). Ok,but my further question is how to directly play the rtsp stream with one pipeline. Anyone can download the software without any cost. A few minutes ago, I tried to use the latest version (commit 593bb50e062fae474880f5ab353fec9f751dc06e) I tried ffplay, mplayer and vlc, for play but nothing. ffmpeg rtsp rtsp-client this question asked Feb 16 '11 at 9:59 NoviceAndNovice 312 1 8 20 who afraid? :-) – NoviceAndNovice Feb 16 '11 at 10:26 When you ask a question here you are expected to select one of the responses as the "answer" by clicking on the large check mark by that answer. This library abstracts the complex command-line usage of ffmpeg into a fluent, easy to use node. 1 MB gzipped. mkv is a Matroska container file and accepts video, audio and subtitle streams, so ffmpeg will try to select one of each type. I have got a rtsp stream from camera. To install any 4. NET Video Converter. OpenCV cannot read MP4 videos. Full Documentation is available describing all features and components. FFmpeg is an excellent tool for converting videos into animated GIFs and the quality isn't bad either. The following tutorial will show you how to install FFmpeg onto the Raspberry Pi and stream video to the local web which can be access through computer/phone/tablet. Video processing using DirectShow filters. 0001 -t 30 -y share. 150 -i clip. Once you've copied your video to your Mac you can call up ffmpeg in terminal. This is the script I am using (only doing a 10 second clip for test):. exe in command line it displays ffmpeg version message and configuration message, how can i stop display of these messages on command line?". MTS -f avi -vcodec mpeg4 -b:v 16000 bla. tgz 파일 다운로드. FFMpegで画像から動画にする. As part of this process I am attempting to use evo-avconv (with the …. FFmpeg is an excellent tool for converting videos into animated GIFs and the quality isn't bad either. 0, so you don't need to fetch it separately. mp4 に記録しています ファイルをffmpegを使用して、すべての動画で10分の長さのマルチファイルにロールバックしたい。 現在、私はこれに対する解決策を持っています:時間の長さを「00:10:00」に設定し、終了後、新しいプロセス. Tutorial 02: Outputting to the Screen Code: tutorial02. Examples for advanced use of VLC's stream output ( transcoding, multiple streaming, etc) 1. Below are some links that provide it already compiled and ready to go. BATCH CONVERT video for DARWIN RTSP streaming with ffmpeg. Steam recording with RTMPDump or FFmpeg. Posted by 2 years ago. Anyone can download the software without any cost. mp4 -i subtitles. Apple and Microsoft) and Real-RTSP (with data transferred over RDT). Because FFVCL is a direct wrapper of FFmpeg’s libavcodec APIs, it. Link to source code at Github. Wowza Streaming Engine doesn't use the edit lists that some video recorders use to synchronize audio and video in a. Reading/writing video files using FFmpeg. Example for a 720p @ 2500 kbps CBR MPEG-2 transport stream: ffmpeg -re -i -s 1280x720 -r 24 -c:v libx264 -x264opts nal-hrd=cbr:force-cfr=1 \ -b:v 2300k -minrate 2300k…. Universal Media Server is a DLNA-compliant UPnP Media Server Universal Media Server supports all major operating systems, with versions for Windows, Linux and Mac OS X. Video processing using DirectShow filters. Simple tutorial to teach you how to connect your IP camera RTSP stream to Youtube Live by using the free ffmpeg software, it's a free video stream solution. IP Camera –> RTSP –> FFMPEG –> JPG file Then in a seperate process we will use the JPG files as imput and do the following. If you find FFmpeg useful, you are welcome to contribute by donating. 1:8554/" -f segment -segment_time "60" -segment_format_options movflags=+faststart -reset_timestamps "1" -strftime "1" d:\temp\sample_%Y. RTSP is not technically a protocol handler in libavformat, it is a demuxer and muxer. Many formats only support a handful of metadata keys. mp4 Diposting oleh. MPEG-4), you might be using another motion estimation method, and without an explicit motion estimation method specified for the mpeg2video encoder, ffmpeg. вот что мне он выдает [rtsp @ 0x562df6cc5e80] UDP timeout, retrying with TCP [rtsp @ 0x562df6cc5e80] method PAUSE failed: 551 Option not supported [rtsp @ 0x562df6cc5e80] Could not find codec parameters for stream 0 (Video: h264, none): unspecified size Consider increasing the value for the 'analyzeduration' and 'probesize' options Guessed Channel Layout for Input Stream #0. Update: Still using this 8 years later, but in the form of a quick script, which is useful if you are doing it more than once. The second option -f mp3 tells ffmpeg. FFmpeg developer can use all of FFmpeg features from code in comfortable way. Reference NReco. 264 // 转码为码流原始文件 ffmpeg –i test. Ffmpeg rtsp player Ffmpeg rtsp player. And as ffmpeg is single threaded, it seems to take long enough for the rtsp input buffer to overflow. Recently, I created another control and would like to share my experience with the community. 264 -frames 1 -qscale 1 -f image2 /home/pi/image. mp4 Extract Audio From Video File. ffmpeg rtsp rtsp-client this question asked Feb 16 '11 at 9:59 NoviceAndNovice 312 1 8 20 who afraid? :-) – NoviceAndNovice Feb 16 '11 at 10:26 When you ask a question here you are expected to select one of the responses as the "answer" by clicking on the large check mark by that answer. video -vn -acodec libvorbis -ab 128k -dash 1 my_audio. $ ffmpeg -i input. 04 LTS systems with easy steps. This is the documentation for fluent-ffmpeg 2. 6 and on one can set the service type of the mpegts stream as radio. actually we have self developed plugins: /! myh264dec ! queue ! myvideiorawplaysink/ which do h264 decode, and video/x-raw playback. conf ##### HTTPPort 8080 RTSPPort 8554 HTTPBindAddress 0. This can be done from the terminal, and does not require X. RTSP transmits ts, mp4 format video stream RTSP requires usage of 2-3 paths, separate commands and data channel ffmpeg -i rtsp://192. Every data event contains one image Buffer object. 66:554/h264major -vcodec copy -acod. Convert Mp4 To Gif Convert Avi To Mp4. mp4 -vcodec libx265 -crf 20 output.